艾诺Novo8发现开箱

8寸的艾诺发现表现怎么样?平板盒子艾诺Novo8发现评测性能篇

在上周日的时候跟大家分享了艾诺Novo8发现的开箱和屏幕效果,一周过去了,今天跟大家带来艾诺发现的性能评测部分,主要是软件、游戏、OTG、wifi和续航等方面的内容,供大家做购买前的参考。

系统介绍

艾诺Novo8发现

▲艾诺发现桌面

艾诺Novo8发现的桌面,和其他艾诺平板电脑一样,默认的桌面上除了底下一排的快捷方式外,还有日历、PPTV、音乐和快捷开关。考虑到发现采用的猫头鹰四核处理器的性能,平板盒子还是建议大家没事不要在桌面放这么多小插件,浪费性能。

关于艾诺Novo8发现系统流畅度可以大概参照下面的视频:

▲艾诺发现开机系统流畅度测试

从上面的视频可以看到,艾诺Novo8发现在才开机的时候进入应用菜单界面后,最开始还是有点卡,等待几秒后切换界面的流畅度还是可以。同时屏幕也支持10点触控,表现还不错。

艾诺Novo8发现

▲艾诺发现自带软件应用

艾诺发现固件自带的软件还是有点多,不过基本上也都是用得到的,对于才玩Android的朋友来说有好处,同时固件出厂就带有Root权限,不喜欢的可以直接用root卸载类软件干掉碍眼的。

艾诺Novo8发现

▲系统固件设置菜单

从上面的设置可以看到,固件默认开放了以太网功能(Ethernet),同时支持蓝牙功能,平板盒子这里测试的固件版本号是2013.05.02 V1

艾诺Novo8发现

▲OTG外接U盘测试

上图是通过OTG线外接U盘测试,用的一个8G容量的U盘。

艾诺Novo8发现

▲OTG外接存储盘

上图是外接U盘或者移动硬盘后,用ES文件管理器查看的U盘内容,移动硬盘只能识别一个分区。

艾诺Novo8发现

▲OTG外接网线上网

上图是OTG外接USB网卡转接头后上网,可以看到右下角电池旁边有联网的图标,IP设置里面也自动获取到了IP。

艾诺Novo8发现

▲蓝牙测试

蓝牙没有蓝牙耳机跟键盘这些,就简单的测试了一下是否可以使用。

艾诺Novo8发现

▲多点触控测试

艾诺发现最大支持10点触控

艾诺Novo8发现

▲系统信息

从上图可以看到,2G内存一般情况下有1.3G左右的空余内存可以使用,1G的ROM空间。200万像素的后置摄像头。

艾诺Novo8发现

▲触摸屏画线检测

通过在触摸屏上画直线来检测触摸是否准确有没有偏移,可以看到线段基本上都还是连续的,而且也没有什么弯曲的地方。

软件测试

艾诺Novo8发现

▲QQHD

安装QQHD软件,跟群友聊天、看空间、电影、听音乐,都没问题。

艾诺Novo8发现

▲新浪微博HD

新浪微博HD,发微博,发照片,都没问题。

艾诺Novo8发现

▲跟机锋合作的艾诺市场

跟机锋合作的艾诺市场,对于小白来说根本不知道Google Play是啥玩意儿,带一个第三方的软件市场还是有帮助。

艾诺Novo8发现

▲漫画阅读

漫画阅读在8寸的屏幕上还是没什么问题的,基本上不用缩放能看清楚图片的文字。

 

艾诺Novo8发现

▲PDF阅读

PDF测试的时候选取了一本扫描的和一本非扫描的文档测试,载入和阅读效果都还不错,具体的参照下面视频。

▲艾诺发现漫画和PDF阅读效果

网页跟视频

艾诺Novo8发现

▲UC浏览器浏览平板盒子网首页

自带的里面有UC浏览器,两个浏览器都测试了一遍,访问网站都没什么问题,不过默认的那个浏览器有时候会出点小问题,有待优化。

艾诺Novo8发现

▲HTML5方式观看优酷视频

艾诺Novo8发现

▲电脑方式观看优酷视频

优酷视频默认是采用HTML5的方式,选择桌面方式浏览也可以调用Flash插件播放,上网的具体使用可以参考下面视频:

▲艾诺发现上网和网页视频

艾诺Novo8发现

▲PPTV客户端看电影

艾诺Novo8发现

▲猫头鹰播放器的多窗口视频播放

PPTV看视频肯定是没问题的了,只要网速流畅视频就流畅,而猫头鹰播放器播放视频默认的是设置最多两个窗口播放,这个多窗口播放实际上是一种嘘头,实际使用中相信没人这么用,不过可以窗口播放还是有方便的地方,但是从多窗口播放的情况来看,炬力猫头鹰四核的性能还是赶不上全志A31,2个窗口在拖动的时候就有点卡了。

游戏测试

艾诺Novo8发现

▲地铁跑酷

地铁跑酷游戏可以玩,不过感觉画面有点不那么流畅,有些场景游戏途中会感觉头晕。(有点电脑显卡驱动没装上的感觉)

艾诺Novo8发现

▲水果忍者BT版

水果忍者倒是没什么问题,这么多水果一只手画屏幕触控也能响应过来。

艾诺Novo8发现

▲Cordy 2

ordy是一款3D游戏,游戏中玩家需要控制Cordy在游戏场景中展开旅程,利道具通过种种障碍。艾诺发现在玩这种小型3D游戏上倒是没发现什么问题,具体的小游戏流畅度可以参见下面的视频。

▲艾诺发现玩小游戏

艾诺Novo8发现

▲极品飞车17

艾诺Novo8发现在玩极品飞车17的时候,流畅度还是赶不上采用A31或者RK3188的机子,不过相比之前测试的艾诺英雄来说要流畅不少了,而且游戏的特效基本上也有,游戏演示视频如下:

▲艾诺Novo8发现玩极品飞车17

wifi和续航测试

wifi测试通过wifi分析仪这个软件测试,户型图如下(加黑的是承重墙):

户型图

▲户型图

艾诺Novo8发现

▲信号截图

上图是分别在路由器房间、隔壁卧室、入户花园和客厅四个地方的信号强度截图,可以看到在入户花园那基本上搜不到信号了,主要有一层承重墙过来中间还有个卫生间,相当于3、4层墙的阻挡了。

艾诺Novo8发现

▲各个点的信号波动情况

从隔壁房间和客厅的信号强度来看,基本上穿一层墙的信号还是在黄色和绿色区域相交的之间。

续航测试:测试环境是wifi不断,然后机子上用mxplayer硬解码循环播放720P高清视频,网上大概问了下部分网友,基本上都是在电影天堂等网站下载2G以下的720P片源,多数都是RMVB格式,测试的片源信息如下:

General
Complete name : E:\Download\movie\厨子戏子痞子.HD.1280×720.国语中字.rmvb
Format : RealMedia
File size : 1.27 GiB
Duration : 1h 47mn
Overall bit rate : 1 653 Kbps

Video

ID : 1
Format : RealVideo 4
Codec ID : RV40
Codec ID/Info : Based on AVC (H.264), Real Player 9
Duration : 1h 47mn
Bit rate : 1 589 Kbps
Width : 1 280 pixels
Height : 720 pixels
Display aspect ratio : 16:9
Frame rate : 23.976 fps
Bits/(Pixel*Frame) : 0.072
Stream size : 1.20 GiB (94{6d2b2bc657e3751d7029d45ccc2771220871bf81bb11f09a1f3d442e6188c098})

Audio
ID : 0
Format : AAC
Format/Info : Advanced Audio Codec
Format profile : LC
Codec ID : raac
Codec ID/Info : Real Player 9
Duration : 1h 47mn
Bit rate : 64.0 Kbps
Channel(s) : 2 channels
Sampling rate : 32.0 KHz
Bit depth : 16 bits
Compression mode : Lossy
Stream size : 49.4 MiB (4{6d2b2bc657e3751d7029d45ccc2771220871bf81bb11f09a1f3d442e6188c098})

屏幕亮度和音量都开一半(艾诺发现在室内一半的音量实际上还稍微可以再关小点),从下午4点44左右开始播放,一直到晚上10点48提示电量剩余11{6d2b2bc657e3751d7029d45ccc2771220871bf81bb11f09a1f3d442e6188c098},如下图:

艾诺Novo8发现

▲电量提醒

艾诺Novo8发现

▲系统电量使用统计

艾诺Novo8发现

▲系统屏幕消耗电量跟时间

从测试情况来看,艾诺Novo8发现播放720P高清视频一共播放了6个小时,虽然不是像之前一样连接的wifi用PPTV客户端播放高清视频(现在这里网速不好,在线看有压力),不过从以前测试其他平板电脑的经验来看,wifi消耗的电量并不大,同时PPTV这些的高清也不一定比这里测试的片源清晰,相信这个测试结果还是比较靠谱的,以后的平板测试都会采用这个片源测试,方便大家对比。

评测总结:

艾诺Novo8发现这款机子的做工方面,外观还是比较好看,有点像某些7.9寸的平板电脑,手感也还可以,摄像头方面没测试,反正不到500万自动对焦的摄像头基本上都不适合拍照片,消费者也不要太高估平板的摄像头功能了,除非给钱上手机那种档次的镜头,不然永远赶不上手机的效果(山寨手机除外)。整个机子使用下来没有什么大毛病,性能由于采用的猫头鹰四核,本身心里就不对性能报多大的期望,日常的电影、听歌、上网、聊QQ、小游戏都没压力,大游戏就不推荐买猫头鹰四核的机子了,续航时间也可以,整个机子唯一有点不满意的就是屏幕亮度有点低,估计是固件限制了,为了续航更长久,如果想带着艾诺发现外出使用的朋友估计眼睛看着有点费力。总的就是说如果你想买个8寸的回来上上网看看电视剧啥的,预算又不高,还是可以考虑。

14 thoughts on “8寸的艾诺发现表现怎么样?平板盒子艾诺Novo8发现评测性能篇

Author gravatar
雨帆 2013 年 6 月 7 日, 上午 11:59

这本CSS实战手册我有非扫描版本的

Author gravatar
平板盒子网_平板电脑推荐 2013 年 6 月 7 日, 下午 12:10

给我啊

Author gravatar
vikutorika 2013 年 6 月 5 日, 上午 9:23

烈焰的游戏性能也很差,艾诺游戏方面是不是不怎么样

Author gravatar
平板盒子网_平板电脑推荐 2013 年 6 月 5 日, 上午 9:25

恩,因为他处理器的关系

Author gravatar
飘零子弟 2013 年 6 月 1 日, 下午 8:41

多谢盒子兄的评测,这款机子一直在留意,反正不玩什么大型游戏,不出意外的话就准备入手了~

Author gravatar
平板盒子网_平板电脑推荐 2013 年 6 月 1 日, 下午 9:33

续航还是可以,看电影6个小时,不玩游戏OK。

Author gravatar
来看测评 2013 年 6 月 1 日, 下午 5:20

终于上测评咯~支持盒子!!

Author gravatar
平板盒子网_平板电脑推荐 2013 年 6 月 1 日, 下午 5:39

拖了一周才上呢。

Author gravatar
来看测评 2013 年 6 月 1 日, 下午 6:16

“发现”外观是不错。跟驰为v88mini比,体验怎样?重量是多少?

Author gravatar
平板盒子网_平板电脑推荐 2013 年 6 月 1 日, 下午 9:32

流畅度肯定比不上驰为V88mini,不适合玩游戏,重量我这测试是441.3g

Author gravatar
来看测评 2013 年 6 月 1 日, 下午 10:30

哦哦 谢啦~驰为的做工跟外观无法接受, 毕竟没十全十美的产品。

Author gravatar
平板盒子网_平板电脑推荐 2013 年 6 月 1 日, 下午 11:09

现在手上有艾寇胖丁2,外观和驰为的大体上差不多,只不过他把边上换成了塑料的,不割手了。

Author gravatar
来看测评 2013 年 6 月 2 日, 上午 12:22

艾寇胖丁2做工跟体验怎样?盒子什么时候上测评?

Author gravatar
平板盒子网_平板电脑推荐 2013 年 6 月 2 日, 上午 9:45

下周看能不能搞出来吧,机子多

Comments are closed.